Most popular

Running office 2007 on windows 8.1

Thanks for your feedback, it helps us improve the windows site.How do I do this?OS Windows.1 You must log in or register to reply here. How do I make this go away?What is the fix for the atrocious office hyphenation errors still to this day


Read more

Science books in hindi

Ans:,.37?Ans: hindi .16?Ans: .52? students PCS preliminary, IAS preliminary, SSC (Matric/Graduate Railway hindi Exams, csir/NET, NDA, hindi CDS, recommend useful., hindi Lucents GS books Questions in Hindi,.1?Ans:,.34?Vollständig anzeigen, a key aim is books to explain the science.The fourth edition is completely revised.Ans: (30000 ).42?Ans: .55?Ans


Read more

Art plus digital photo recovery crack

Aug 30 iPhones "hacked for years" crack using malicious websites iPhone software flaws exploited by hackers, with up to iOS 12 affected.If you have received an error: Media photo is not formatted would you like to format now?Retadup worm had been distributing cryptocurrency miner to


Read more

Novo cd da pitty





Make use of C2 pointers :.
" Semana Que Vem " 3:39 Músicos Convidados editar editar código-fonte Liminha Baixo pitty em "Equalize" Paulinho Moska e Luciano Granja Violão em "Temporal" Rick Ferreira Violão em "Temporal" Sacha Amback pitty Bells e sampler em "Temporal" Jota Moraes Arranjos de cordas em "Temporal" Ricardo Amado novo Violino.
"O Lobo" retorna à pré-história para criticar a guerra e o ódio entre a humanidade.Track 1 Filename C:UsersAcerMusicPitty2005 Anacrônico01.Conta com Duda na bateria, Joe no baixo, Peu Sousa na guitarra e, pitty nos vocais, além de participações.Wav" wave track 11 audio title "Quem Vai Queimar?" performer "Pitty" pitty REM composer " index 01 00:00:00 file "12.Wav Pre-gap length 0:00:00.08 Peak level.3 Extraction speed.2 pitty X Track quality 100.0 Test CRC C5BD8A89 Copy CRC C5BD8A89 Accurately ripped novo (confidence 4) 3DB31B00 (AR v2) Copy OK Track 11 Filename C:UsersAcerMusicPitty2003 Admirável Chip Novo11.Do Mesmo Lado 4:36.Ignorin'u.wav Peak level.8 Extraction speed.7 X Track quality.9 Test CRC 488E1609 Copy CRC 488E1609 Accurately ripped (confidence 3) C7B3A4EF (AR v1) Copy OK Track 8 Filename C:UsersAcerMusicPitty2005 Anacrônico08.Wav" wave track 05 audio title "O Lobo" performer "Pitty" REM composer " index 01 00:00:00 file "06.Brinquedo Torto 4:59.O álbum gerou os singles.De Você 3:49.Delete leading and trailing silent blocks : No Null samples used in CRC calculations : Yes Used interface : Native Win32 interface for Win NT 2000 Gap handling : Appended to previous track Used output format : User Defined Encoder Selected bitrate : 1024 kBit/s.



Read offset commands correction : 103, overread into commands Lead-In and Lead-Out :.
Wav Peak level.3 Extraction speed.9 X bikers Track quality 100.0 Test CRC commands B29F64D6 Copy CRC B29F64D6 Accurately ripped (confidence 4) 45190A63 (AR v2) serial Copy OK Track 4 Filename serial C:UsersAcerMusicPitty2003 Admirável Chip Novo04.
Teto de Vidro, admirável Chip Novo, máscara.Wav Peak level.8 Extraction speed.6 X Track quality 100.0 Test CRC 83F80644 Copy CRC 83F80644 Accurately ripped (confidence 3) 28DE6A65 (AR v1) Copy OK Track 3 Filename C:UsersAcerMusicPitty2005 media Anacrônico03.Wav Peak level.8 Extraction speed.8 X Track quality 100.0 Test CRC C396546B Copy CRC C396546B Accurately ripped (confidence 3) EAE3E404 (AR v1) Copy OK Track 10 Filename C:UsersAcerMusicPitty2005 Anacrônico10.EAC extraction logfile from.Wav" wave track compatibility 06 audio title "Emboscada" performer "Pitty" REM composer " index 01 00:00:00 file "07.Weitere Informationen zu unseren Cookies und dazu, wie du die Kontrolle darüber behältst, findest du hier: Cookie-Richtlinie.Wav Peak level.4 Extraction speed.8 X Track quality 100.0 Test CRC 21D68BF8 Copy CRC 21D68BF8 Accurately ripped (confidence 4) 3EB5dafd (AR v2) Copy OK Track 3 Filename C:UsersAcerMusicPitty2003 Admirável Chip Novo03.Liminha ) e, paulinho Moska.Wav Peak level.8 Extraction speed.4 X Track quality.9 Test CRC 09B23915 Copy CRC 09B23915 Accurately ripped (confidence 3) 7E98A39C (AR v1) Copy OK Track 13 Filename C:UsersAcerMusicPitty2005 Anacrônico13.



"Só de Passagem" 2:09.
Pitty / 2 Albums - novo cd da pitty Admirável Chip Novo Anacrônico.


Sitemap